* Dettagli Torrent   globale  | Commenti (0) 


- Under The Dome s02e05[Mux - XviD - Ita Eng Mp3 - Sub Ita Eng][TNT] WEB-DLMux By K@ -



Download via torrent:
                 
Categoria bittorrent SerieTv
Descrizione
UNDER THE DOME
STAGIONE 2
ITA-ENG
WEB-DLmux




.: Dati Serie :.


Nazione:USA
Anno: 2013 - In produzione
Genere: fantascienza, drammatico, horror
Stagioni: 2
Episodi: 26
Durata: 45 min circa
Ideatore Brian K. Vaughan
Soggetto Stephen King
Cast:
 Mike Vogel: Dale "Barbie" Barbara
Rachelle Lefevre: Julia Shumway
Natalie Martinez: Linda Esquivel
Britt Robertson: Angie McAlister
Alexander Koch: Junior Rennie
Colin Ford: Joe McAlister
Nicholas Strong: Phil Bushey
Jolene Purdy: Dodee Weaver
Aisha Hinds: Carolyn Hill
Jeff Fahey: Howard "Duke" Perkins
Dean Norris: James "Big Jim" Rennie

.: Trama  :.


La serie segue le vicende degli abitanti di Chester's Mill, una piccola cittadina del Maine, che si ritrovano tagliati fuori dal resto del mondo a causa di un impenetrabile, misterioso e invisibile campo di forza che circonda tutta la cittą, comparso improvvisamente dal nulla. Impossibilitati ad uscire dalla cittą presa ormai dal panico, un piccolo gruppo di persone cercherą di mantenere l'ordine e la pace e cercherą anche di scoprire come fuggire da quella che per loro č ormai diventata una prigione.


.: Screenshot :.






.: Caratteristiche Tecniche :.

* * * MediaInspector for Mac - Version 2.0.1, build 900
* * * ©2012 by Diego Massanti
* * * MediaInfo Lib by Jerome Martinez
* * * Raw File Report for [email protected]

General
Complete name                    : Und3r.Th3.Dom3.2x01-02.ITA-ENG.WEB-DLMux.XviD-K@/[email protected]

Format                           : AVI
Format/Info                      : Audio Video Interleave
File size                        : 439 MiB
Duration                         : 43mn 29s
Overall bit rate                 : 1 410 Kbps

Video
ID                               : 0
Format                           : MPEG-4 Visual
Format profile                   : Simple@L3
Format settings, BVOP            : No
Format settings, QPel            : No
Format settings, GMC             : No warppoints
Format settings, Matrix          : Default (H.263)
Codec ID                         : XVID
Codec ID/Hint                    : XviD
Duration                         : 43mn 29s
Bit rate                         : 1 145 Kbps
Width                            : 624 pixels
Height                           : 352 pixels
Display aspect ratio             : 16:9
Frame rate                       : 23.976 fps
Color space                      : YUV
Chroma subsampling               : 4:2:0
Bit depth                        : 8 bits
Scan type                        : Progressive
Compression mode                 : Lossy
Bits/(Pixel*Frame)               : 0.217
Stream size                      : 356 MiB (81%)
Writing library                  : XviD 1.1.2 (UTC 2006-11-01)

Audio #1
ID                               : 1
Format                           : MPEG Audio
Codec ID                         : 55
Codec ID/Hint                    : MP3
Duration                         : 41mn 19s
Bit rate                         : 128 Kbps
Channel(s)                       : 2 channels
Sampling rate                    : 48.0 KHz
Compression mode                 : Lossy
Stream size                      : 37.8 MiB (9%)
Alignment                        : Aligned on interleaves
Interleave, duration             : 24 ms (0.58 video frame)

Audio #2
ID                               : 2
Format                           : MPEG Audio
Codec ID                         : 55
Codec ID/Hint                    : MP3
Duration                         : 41mn 7s
Bit rate                         : 128 Kbps
Channel(s)                       : 2 channels
Sampling rate                    : 48.0 KHz
Compression mode                 : Lossy
Stream size                      : 37.7 MiB (9%)
Alignment                        : Aligned on interleaves
Interleave, duration             : 24 ms (0.58 video frame)
Info: Per scaricare devi usare un client come uTorrent, o Azureus
AnnounceURL
http://tracker.tntvillage.scambioetico.org:2710/announce
Hash 9555ae607952b63ad1a61a0bf5847d090b44b608
Peers seeds: 83 , leech: 15
Size 438.71 MB
Completato 2574x
Aggiunto 16.08.14 - 08:08:15
Uploader   kaimanov
Votazione (Voti: 0)


Condividi questo bittorrent:


html/blog:


bbcode/forum:


Tramite bookmarks:



Aggiungi Commento