* Dettagli Torrent   globale  | Commenti (1) 


- 007 On Her Majestys Secret Service ITA ENG AC3 BDRip 1080p X265 ZMachine -



Download via torrent:
                 
Categoria bittorrent DVDrip
Descrizione










:: Scheda del Film ::

Titolo Originale: On Her Majesty's Secret Service
Nazionalità: Gran Bretagna
Anno: 1969
Genere: Spionaggio
Regia: Peter R. Hunt
Durata: 104 Min

Cast:
George Lazemby, Diana Rigg, Telly Savalas, Gabriele Ferzetti, Ilse Steppat, Lois Maxwell, George Baker, Bernard Lee, Bernard Horsfall, Desmond Llewelyn, Yuri Borienko, Virginia North, Catherine Schell, Angela Scoular

:: Trama ::

James Bond, l'agente 007 del servizio segreto britannico, s'è visto offrire, dal ricchissimo Angel Draco, dell'omonima impresa di costruzioni, la mano della figlia, la contessina Tracy. Se la sposerà - alla ragazza per liberarsi di certi suoi complessi, occorre infatti un marito - Bond riceverà in premio un milione di sterline. Dote a parte, la ragazza è asai attraente, ma c'è qualcosa che a Bond preme più di ogni altra: ritrovare Blofeld, il capo della 'Spectre'. Per farlo ha a sua disposizione due settimane: quelle che il suo superiore gli ha concesso per una vacanza. In base a delle informazioni dategli dallo stesso Draco, Bond si reca in Svizzera e, spacciandosi per un nobile scozzese, addetto a un ufficio di ricerche araldiche, si fa ricevere da Blofeld che, spacciandosi per direttore di un istituto scientifico, coltiva il progetto di dominare il mondo con la minaccia dello sterminio batteriologico. Attento osservatore, Blofeld non tarda a smascherare l'agente segreto e a metterlo in condizione di non nuocere. Bond, tuttavia, riesce a lasciare la finta clinica di Blofeld, e con l'insperato aiuto di Tracy, che vi si trovava in vacanza, a raggiungere Londra. Mentre la contessina cade nelle mani di Blofeld, Bond ricorre allo stesso Draco che gli mette a disposizione uomini ed elicotteri per attaccare la centrale di Blofeld. Terminata l'operazione con il successo più pieno, ivi compresa la liberazione di Tracy, Bond lascia il "servizio" e sposa la donna, ma Blofeld, inopinatamente ancor vivo, gliela uccide il giorno stesso delle nozze.

:: Screenshots ::








:: Mediainfo ::

General
Unique ID                                : 244721178363546902283297736618570426568 (0xB81B95A4A661782985CF5E21D7D028C
Complete name                            : J:\Torrents\007.On.Her.Majestys.Secret.Service.ITA.ENG.AC3.BDRip.1080p.X265_ZMachine.mkv
Format                                   : Matroska
Format version                           : Version 4 / Version 2
File size                                : 3.91 GiB
Duration                                 : 2h 22mn
Overall bit rate                         : 3 929 Kbps
Movie name                               : 007: Al Servizio Segreto di Sua Maestà - ZMachine
Encoded date                             : UTC 2014-10-01 17:17:42
Writing application                      : mkvmerge v7.2.0 ('On Every Street') 32bit built on Sep 13 2014 15:42:11
Writing library                          : libebml v1.3.0 + libmatroska v1.4.1

Video
ID                                       : 1
Format                                   : HEVC
Format/Info                              : High Efficiency Video Coding
Codec ID                                 : V_MPEGH/ISO/HEVC
Duration                                 : 2h 22mn
Bit rate                                 : 2 955 Kbps
Width                                    : 1 920 pixels
Height                                   : 816 pixels
Display aspect ratio                     : 2.35:1
Frame rate mode                          : Constant
Frame rate                               : 23.976 fps
Bits/(Pixel*Frame)                       : 0.075
Stream size                              : 2.94 GiB (75%)
Title                                    : Video H.265 (Encoded by ZMachine)
Default                                  : Yes
Forced                                   : Yes

Audio #1
ID                                       : 2
Format                                   : AC-3
Format/Info                              : Audio Coding 3
Mode extension                           : CM (complete main)
Format settings, Endianness              : Big
Codec ID                                 : A_AC3
Duration                                 : 2h 22mn
Bit rate mode                            : Constant
Bit rate                                 : 448 Kbps
Channel(s)                               : 6 channels
Channel positions                        : Front: L C R, Side: L R, LFE
Sampling rate                            : 48.0 KHz
Bit depth                                : 16 bits
Compression mode                         : Lossy
Stream size                              : 456 MiB (11%)
Title                                    : Audio AC3
Language                                 : Italian
Default                                  : Yes
Forced                                   : No

Audio #2
ID                                       : 3
Format                                   : AC-3
Format/Info                              : Audio Coding 3
Mode extension                           : CM (complete main)
Format settings, Endianness              : Big
Codec ID                                 : A_AC3
Duration                                 : 2h 22mn
Bit rate mode                            : Constant
Bit rate                                 : 448 Kbps
Channel(s)                               : 6 channels
Channel positions                        : Front: L C R, Side: L R, LFE
Sampling rate                            : 48.0 KHz
Bit depth                                : 16 bits
Compression mode                         : Lossy
Stream size                              : 456 MiB (11%)
Title                                    : Audio AC3
Language                                 : English
Default                                  : No
Forced                                   : No

Text #1
ID                                       : 4
Format                                   : ASS
Codec ID                                 : S_TEXT/ASS
Codec ID/Info                            : Advanced Sub Station Alpha
Compression mode                         : Lossless
Title                                    : Sub
Language                                 : Italian
Default                                  : No
Forced                                   : No

Text #2
ID                                       : 5
Format                                   : ASS
Codec ID                                 : S_TEXT/ASS
Codec ID/Info                            : Advanced Sub Station Alpha
Compression mode                         : Lossless
Title                                    : Sub
Language                                 : English
Default                                  : No
Forced                                   : No

Menu
00:00:00.000                             : en:Logo/Introduction
00:01:28.254                             : en:Beach Rescue
00:06:56.833                             : en:Credits/Main Title
00:09:28.442                             : en:Queen Of Hearts
00:14:07.304                             : en:Unexpected Guest
00:15:43.442                             : en:Full Of Surprises
00:19:43.932                             : enraco's Proposal
00:26:47.105                             : en:Calling It Quits
00:30:36.251                             : enaddy's Girl
00:34:59.013                             : en:A Bond Exclusive
00:37:13.314                             : en:Break-In
00:43:52.129                             : en:Trading Places
00:47:43.026                             : en:To The Alps
00:54:49.869                             : en:A Cozy Place
00:57:09.217                             : en:The Alpine Room
01:02:37.253                             : en:Meeting With Blofeld
01:06:04.669                             : enlaytime
01:13:21.063                             : enrivate Property
01:18:08.058                             : en:A Madman's Plan
01:22:19.184                             : en:High-Wire Act
01:29:14.932                             : en:Crashing The Party
01:31:36.282                             : enownhill Escape
01:38:32.197                             : en:Lost In The Crowd
01:44:17.668                             : en:Love To The Rescue
01:48:26.625                             : en:Wedding Plans
01:53:53.034                             : en:Avalanche!
01:58:39.320                             : en:Help Wanted
02:00:46.906                             : en:Rescue Mission
02:05:41.867                             : en:...
02:09:09.908                             : en:Self-Preservation
02:11:52.404                             : en:Bond-Sledding
02:15:41.758                             : en:Mrs. James Bond
02:21:07.700                             : en:End Credits


Info: Per scaricare devi usare un client come uTorrent, o Azureus
AnnounceURL
http://tracker.tntvillage.scambioetico.org:2710/announce
Hash 6eb479c2d49347bb875d6c6b0a81daf3aff2fd20
Peers seeds: 12 , leech: 63
Size 3.91 GB
Completato 276x
Aggiunto 04.10.14 - 09:10:40
Uploader   ZMachine
Votazione (Voti: 0)


Condividi questo bittorrent:


html/blog:


bbcode/forum:


Tramite bookmarks:



Aggiungi Commento
Ultimi commenti
  
thank
04/10 12.48
Tutti commenti (1)