* Dettagli Torrent   globale  | Commenti (0) 


- 007 Diamons Are Forever ITA ENG AC3 BDRip 1080p X265 ZMachine -



Download via torrent:
                 
Categoria bittorrent DVDrip
Descrizione










:: Scheda del Film ::

Titolo Originale: Diamonds Are Forever
NazionalitÓ: Gran Bretagna
Anno: 1971
Genere: Spionaggio
Regia: Guy Hamilton
Durata: 122 Min

Cast:
Sean Connery, Jill St. John, Charles Gray, Lana Wood, Jimmy Dean, Bruce Cabot, Putter Smith, Bruce Glover, Norman Burton, Joseph FŘrst, Bernard Lee, Desmond Llewelyn, Leonard Barr, Lois Maxwell, Margaret Lacey, David Bauer, Laurence Naismith, Joe Robinson

:: Trama ::

Dopo aver portato a termine una pericolosa missione, James Bond viene incaricato di scoprire gli organizzatori e le ragioni di un misterioso traffico di diamanti, che minaccia di sconvolgere il mercato mondiale. Sotto la falsa identitÓ di Peter Franks, uno dei corrieri della banda, Bond non tarda a individuarne il capo, la bella Tiffany Case, la cui organizzazione, sta da tempo subendo l'attacco di sconosciuti avversari. Alleatosi con Tiffany, Bond scopre che i diamanti trafugati sono finiti in un laboratorio spaziale, e utilizzati nella costruzione di un satellite trasformato in un micidiale strumento capace di distruggere l'intero armamento nucleare delle Grandi Potenze. A ideare l'ordigno Ŕ stato Ernest Stavros Blofeld, che vuole imporre al mondo il disarmo e la pace. Scoperta la base di Blofeld Bond l'attacca e con l'aiuto di Tiffany la distrugge.

:: Screenshots ::








:: Mediainfo ::

General
Unique ID                                : 173855350456308321202569382516612610305 (0x82CB529237366AA7990BB61C838B3901)
Complete name                            : J:\Torrents\007.Diamonds.Are.Forever.ITA.ENG.AC3.BDRip.1080p.X265_ZMachine.mkv
Format                                   : Matroska
Format version                           : Version 4 / Version 2
File size                                : 3.41 GiB
Duration                                 : 2h 0mn
Overall bit rate                         : 4 063 Kbps
Movie name                               : 007: Una Cascata di Diamanti - ZMachine
Encoded date                             : UTC 2014-10-01 17:26:09
Writing application                      : mkvmerge v7.2.0 ('On Every Street') 32bit built on Sep 13 2014 15:42:11
Writing library                          : libebml v1.3.0 + libmatroska v1.4.1

Video
ID                                       : 1
Format                                   : HEVC
Format/Info                              : High Efficiency Video Coding
Codec ID                                 : V_MPEGH/ISO/HEVC
Duration                                 : 2h 0mn
Bit rate                                 : 3 086 Kbps
Width                                    : 1 920 pixels
Height                                   : 816 pixels
Display aspect ratio                     : 2.35:1
Frame rate mode                          : Constant
Frame rate                               : 23.976 fps
Bits/(Pixel*Frame)                       : 0.082
Stream size                              : 2.59 GiB (76%)
Title                                    : Video H.265 (Encoded by ZMachine)
Default                                  : Yes
Forced                                   : Yes

Audio #1
ID                                       : 2
Format                                   : AC-3
Format/Info                              : Audio Coding 3
Mode extension                           : CM (complete main)
Format settings, Endianness              : Big
Codec ID                                 : A_AC3
Duration                                 : 2h 0mn
Bit rate mode                            : Constant
Bit rate                                 : 448 Kbps
Channel(s)                               : 6 channels
Channel positions                        : Front: L C R, Side: L R, LFE
Sampling rate                            : 48.0 KHz
Bit depth                                : 16 bits
Compression mode                         : Lossy
Stream size                              : 385 MiB (11%)
Title                                    : Audio AC3
Language                                 : Italian
Default                                  : Yes
Forced                                   : No

Audio #2
ID                                       : 3
Format                                   : AC-3
Format/Info                              : Audio Coding 3
Mode extension                           : CM (complete main)
Format settings, Endianness              : Big
Codec ID                                 : A_AC3
Duration                                 : 2h 0mn
Bit rate mode                            : Constant
Bit rate                                 : 448 Kbps
Channel(s)                               : 6 channels
Channel positions                        : Front: L C R, Side: L R, LFE
Sampling rate                            : 48.0 KHz
Bit depth                                : 16 bits
Compression mode                         : Lossy
Stream size                              : 385 MiB (11%)
Title                                    : Audio AC3
Language                                 : English
Default                                  : No
Forced                                   : No

Text #1
ID                                       : 4
Format                                   : ASS
Codec ID                                 : S_TEXT/ASS
Codec ID/Info                            : Advanced Sub Station Alpha
Compression mode                         : Lossless
Title                                    : Sub
Language                                 : Italian
Default                                  : No
Forced                                   : No

Text #2
ID                                       : 5
Format                                   : ASS
Codec ID                                 : S_TEXT/ASS
Codec ID/Info                            : Advanced Sub Station Alpha
Compression mode                         : Lossless
Title                                    : Sub
Language                                 : English
Default                                  : No
Forced                                   : No

Menu
00:00:00.000                             : Opening Sequence
00:04:56.170                             : Diamonds Are Forever
00:07:45.756                             : Plain Solid Work
00:10:31.464                             : Almost Like a Cruise
00:14:43.299                             : Bait and Switch
00:17:15.826                             : Proper Identification
00:21:31.456                             : Killing Bond
00:25:37.536                             : One's Brother's Body
00:29:11.458                             : Final Journey
00:34:10.882                             : Dead Tree
00:36:51.584                             : Plenty of Help
00:39:36.165                             : Breakfast with Tiffany
00:43:57.593                             : What a Circus
00:49:59.663                             : The Next Link
00:51:45.894                             : Follow Those Rocks
00:56:34.057                             : The Little People
00:59:17.011                             : Four-Wheel Drive?
01:03:33.643                             : A Tight Squeeze
01:08:01.285                             : A Trip Upstairs
01:12:56.163                             : "Double Jeopardy"
01:18:34.960                             : "Try and Try Again"
01:20:29.574                             : Walking His Rat
01:23:11.736                             : Funny Voices
01:30:21.958                             : Wild Kingdom
01:32:01.641                             : Unconvincing Disguise
01:33:06.497                             : Where's The Satellite?
01:36:06.010                             : Nothing in Baja
01:37:59.373                             : Cleaning Up the World
01:41:39.885                             : Any Sensible Animal
01:47:22.811                             : "Stupid Fools"
01:54:13.972                             : Bombe Surprise
01:58:34.357                             : End Credits


Info: Per scaricare devi usare un client come uTorrent, o Azureus
AnnounceURL
http://tracker.tntvillage.scambioetico.org:2710/announce
Hash 9d7ec12374899b1378b5ce89b6b4dfb726a019d8
Peers seeds: 22 , leech: 33
Size 3.41 GB
Completato 384x
Aggiunto 04.10.14 - 09:10:35
Uploader   ZMachine
Votazione (Voti: 0)


Condividi questo bittorrent:


html/blog:


bbcode/forum:


Tramite bookmarks:



Aggiungi Commento