* Dettagli Torrent   globale  | Commenti (0) 


- Bling Ring - The Bling Ring (2013) [XviD - Italian English Ac3 5.1 - Sub ita] MIRCrew -



Download via torrent:
                 
Categoria bittorrent DVDrip
Descrizione
Bling Ring - The Bling Ring (2013) [XviD - Italian English Ac3 5.1 - Sub ita] MIRCrew



[center]

NO FOUND ONLY ORIGINAL RELEASE


Bling Ring - The Bling Ring (2013)





 



Titolo originale The Bling Ring
Lingua originale Inglese
Paese di produzione USA
Anno 2013
Durata 87 minuti
Genere crimine, commedia nera
Regia Sofia Coppola
Soggetto Sofia Coppola
Sceneggiatura Sofia Coppola
Produttore Sofia Coppola, Roman Coppola, Youree Henley
Produttore esecutivo Emilio Diez Barroso, Darlene Caamano Loquet, Paul Rassam, Fred Roos, Michael Zakin, Francis Ford Coppola (non accreditato)
Casa di produzione American Zoetrope, NALA Films, Pathé Distribution, Studio Canal, Tobis, Tohokushinsha Film
Distribuzione (Italia) Lucky Red Distribuzione
Fotografia Harris Savides, Christopher Blauvelt
Montaggio Sarah Flack
Scenografia Anne Ross
Costumi Stacey Battat




   Katie Chang: Rebecca Ahn
   Israel Broussard: Marc Hall
   Emma Watson: Nicki Moore
   Leslie Mann: Madre di Nicki
   Taissa Farmiga: Sam Moore
   Erin Daniels: Shannon
   Halston Sage: Amanda
   Nina Siemaszko: Vegas Detective
   Gavin Rossdale: Ricky
   Stacy Edwards: Debbie Hall
   Claire Julien: Chloe Tainer
   Leslie Mann: Laurie Moore
   Georgia Rock: Emily Moore
   Carlos Miranda: Rob
   G. Mac Brown: Henry
   Marc Coppola: Mr. Hall
   Janet Song: Mrs. Ahn
   Annie Fitzgerald: Kate
   Doug DeBeech: Adam
   Patricia Lentz: Judge Henley
   Maika Monroe: Ragazza sulla spiaggia
   Paris Hilton: sé stessa
   Kirsten Dunst: sé stessa
   Lindsay Lohan: sé stessa
   Audrina Patridge: sé stessa
   Rachel Bilson: sé stessa
   Miranda Kerr: sé stessa
   Orlando Bloom: sé stesso
   Brett Goodkin: sé stesso (agente di polizia)

Doppiatori italiani

   Rossa Caputo: Rebecca
   Federico Viola: Marc
   Letizia Ciampa: Nicki
   Francesca Fiorentini: Madre di Nicki
   Virginia Brunetti: Sam
   Barbara De Bortoli: Shannon
   Christian Iansante: Ricky
   Giorgia Brasini: Chloe


.

Il giovane Marc Hall arriva come nuovo studente nella Indian Hills High School di Calabasas, California. Diventa il migliore amico di una ragazza ossessionata dalla fama, Rebecca Ahn. I due iniziano a compiere furti quando, durante un party a casa di Rebecca, trovano veicoli aperti in strada e rubano soldi e carte di credito..........



Inspired by actual events, a group of fame-obsessed teenagers use the internet to track celebrities' whereabouts in order to rob their homes........











[spoiler]
General
Complete name                            : Bling Ring - The Bling Ring (2013).ita.eng.sub.ita.MIRCrew\Bling Ring - The Bling Ring (2013).ita.eng.sub.ita.MIRCrew.avi
Format                                   : AVI
Format/Info                              : Audio Video Interleave
File size                                : 1.53 GiB
Duration                                 : 1h 30mn
Overall bit rate                         : 2 409 Kbps
Writing application                      : VirtualDubMod 1.5.4.1 (build 2178/release)
Writing library                          : VirtualDubMod build 2178/release

Video
ID                                       : 0
Format                                   : MPEG-4 Visual
Format profile                           : Simple@L3
Format settings, BVOP                    : No
Format settings, QPel                    : No
Format settings, GMC                     : No warppoints
Format settings, Matrix                  : Default (H.263)
Codec ID                                 : XVID
Codec ID/Hint                            : XviD
Duration                                 : 1h 30mn
Bit rate                                 : 1 499 Kbps
Width                                    : 720 pixels
Height                                   : 404 pixels
Display aspect ratio                     : 16:9
Frame rate                               : 24.000 fps
Color space                              : YUV
Chroma subsampling                       : 4:2:0
Bit depth                                : 8 bits
Scan type                                : Progressive
Compression mode                         : Lossy
Bits/(Pixel*Frame)                       : 0.215
Stream size                              : 973 MiB (62%)
Writing library                          : XviD 65

Audio #1
ID                                       : 1
Format                                   : AC-3
Format/Info                              : Audio Coding 3
Mode extension                           : CM (complete main)
Codec ID                                 : 2000
Duration                                 : 1h 30mn
Bit rate mode                            : Constant
Bit rate                                 : 448 Kbps
Channel(s)                               : 6 channels
Channel positions                        : Front: L C R, Side: L R, LFE
Sampling rate                            : 48.0 KHz
Bit depth                                : 16 bits
Compression mode                         : Lossy
Stream size                              : 291 MiB (19%)
Alignment                                : Split accross interleaves
Interleave, duration                     : 42 ms (1.00 video frame)
Interleave, preload duration             : 500 ms

Audio #2
ID                                       : 2
Format                                   : AC-3
Format/Info                              : Audio Coding 3
Mode extension                           : CM (complete main)
Codec ID                                 : 2000
Duration                                 : 1h 30mn
Bit rate mode                            : Constant
Bit rate                                 : 448 Kbps
Channel(s)                               : 6 channels
Channel positions                        : Front: L C R, Side: L R, LFE
Sampling rate                            : 48.0 KHz
Bit depth                                : 16 bits
Compression mode                         : Lossy
Stream size                              : 291 MiB (19%)
Alignment                                : Split accross interleaves
Interleave, duration                     : 42 ms (1.00 video frame)
Interleave, preload duration             : 500 ms




[/spoiler]

[/center]
Info: Per scaricare devi usare un client come uTorrent, o Azureus
AnnounceURL
udp://open.demonii.com:1337/announce
Hash 0ccd70c49be21af6bfc94bbaa32a0d4a228a88c7
Peers seeds: 53 , leech: 19
Size 1.53 GB
Completato 314x
Aggiunto 04.10.14 - 18:10:47
Uploader   robbyrs
Votazione (Voti: 0)


Condividi questo bittorrent:


html/blog:


bbcode/forum:


Tramite bookmarks:



Aggiungi Commento