* Dettagli Torrent   globale  | Commenti (0) 


- 007 Live And Let Die ITA ENG DTS AAC BDRip 1080p X264 ZMachine -



Download via torrent:
                 
Categoria bittorrent DVDrip
Descrizione










:: Scheda Film ::

Titolo Originale: Live and Let Die
Nazionalit: Gran Bretagna
Anno: 1973
Genere: Spionaggio
Regia: Guy Hamilton
Durata: 122 Min

Cast:
Roger Moore, Yaphet Kotto, Jane Seymour, Clifton James, Julius Harris, Gloria Hendry, Geoffrey Holder, David Hedison, Tommy Lane, Bernard Lee, Lois Maxwell

:: Trama ::

L'agente segreto James Bond lascia l'Inghilterra per il nuovo continente, con il compito di indagare sulla morte di tre suoi colleghi assassinati nello stesso giorno. Da New Orleans le tracce lo conducono a Sainte-Monique, un'isola dei Caraibi sulla quale il dottor Kananga - un uomo di colore che si fa chiamare anche Mister Big - ha installato la centrale operativa di un colossale traffico di droga. Con questa intende invadere gli Stati Uniti per annichilirne i bianchi e ridurre il Paese in suo potere. Innamoratasi di Bond, Solitaire (una veggente al servizio di Kananga) lo aiuta a sgominare la banda.

:: Screenshots ::








:: Mediainfo ::

General
Unique ID : 176329739553381641326261879823838661015 (0x84A7DF5F622A0F0191F94ED40EB6C997)
Complete name : D:\CONTROLLARE\007.Live.And.Let.Die.ITA.ENG.DTS.AAC.BDRip.1080p.X264_ZMachine.mkv
Format : Matroska
Format version : Version 4 / Version 2
File size : 7.47 GiB
Duration : 2h 1mn
Overall bit rate : 8 792 Kbps
Movie name : 007: Vivi e Lascia Vivere - ZMachine
Encoded date : UTC 2014-10-01 17:25:47
Writing application : mkvmerge v7.2.0 ('On Every Street') 32bit built on Sep 13 2014 15:42:11
Writing library : Lavf54.63.104

Video
ID : 1
Format : AVC
Format/Info : Advanced Video Codec
Format profile : [email protected]
Format settings, CABAC : Yes
Format settings, ReFrames : 4 frames
Codec ID : V_MPEG4/ISO/AVC
Duration : 2h 1mn
Nominal bit rate : 4 197 Kbps
Width : 1 920 pixels
Height : 1 036 pixels
Display aspect ratio : 1.85:1
Frame rate mode : Constant
Frame rate : 23.976 fps
Color space : YUV
Chroma subsampling : 4:2:0
Bit depth : 8 bits
Scan type : Progressive
Bits/(Pixel*Frame) : 0.088
Title : Video H.264 (Encoded by ZMachine)
Writing library : x264 core 123 r2189 35cf912
Encoding settings : cabac=1 / ref=4 / deblock=1:0:0 / analyse=0x3:0x133 / me=umh / subme=9 / psy=1 / psy_rd=1.00:0.15 / mixed_ref=1 / me_range=24 / chroma_me=1 / trellis=1 / 8x8dct=1 / cqm=0 / deadzone=21,11 / fast_pskip=1 / chroma_qp_offset=-3 / threads=30 / sliced_threads=0 / nr=0 / decimate=1 / interlaced=0 / bluray_compat=0 / constrained_intra=0 / bframes=5 / b_pyramid=2 / b_adapt=2 / b_bias=0 / direct=1 / weightb=1 / open_gop=0 / weightp=2 / keyint=250 / keyint_min=23 / scenecut=40 / intra_refresh=0 / rc_lookahead=40 / rc=2pass / mbtree=1 / bitrate=4197 / ratetol=1.0 / qcomp=0.60 / qpmin=10 / qpmax=51 / qpstep=4 / cplxblur=20.0 / qblur=0.5 / ip_ratio=1.40 / aq=1:1.00
Default : Yes
Forced : No


Audio #1
ID : 2
Format : DTS
Format/Info : Digital Theater Systems
Mode : 16
Format settings, Endianness : Big
Codec ID : A_DTS
Duration : 2h 1mn
Bit rate mode : Constant
Bit rate : 768 Kbps
Channel(s) : 6 channels
Channel positions : Front: L C R, Side: L R, LFE
Sampling rate : 48.0 KHz
Bit depth : 24 bits
Compression mode : Lossy
Delay relative to video : 424ms
Stream size : 668 MiB (9%)
Title : Audio DTS
Language : Italian
Default : Yes
Forced : No

Audio #2
ID : 3
Format : DTS
Format/Info : Digital Theater Systems
Format profile : HRA / Core
Mode : 16
Format settings, Endianness : Big
Codec ID : A_DTS
Duration : 2h 1mn
Bit rate mode : Constant
Bit rate : 3 018 Kbps / 1 509 Kbps
Channel(s) : 6 channels
Channel positions : Front: L C R, Side: L R, LFE
Sampling rate : 48.0 KHz
Bit depth : 24 bits
Compression mode : Lossy
Delay relative to video : 424ms
Stream size : 2.56 GiB (34%)
Title : Audio DTS
Language : English
Default : No
Forced : No

Audio #3
ID : 4
Format : AAC
Format/Info : Advanced Audio Codec
Format profile : LC
Codec ID : A_AAC
Duration : 2h 1mn
Channel(s) : 6 channels
Channel positions : Front: L C R, Side: L R, LFE
Sampling rate : 48.0 KHz
Compression mode : Lossy
Delay relative to video : 444ms
Title : Audio AAC
Language : Italian
Default : No
Forced : No

Audio #4
ID : 5
Format : AAC
Format/Info : Advanced Audio Codec
Format profile : LC
Codec ID : A_AAC
Duration : 2h 1mn
Channel(s) : 6 channels
Channel positions : Front: L C R, Side: L R, LFE
Sampling rate : 48.0 KHz
Compression mode : Lossy
Delay relative to video : 444ms
Title : Audio AAC
Language : English
Default : No
Forced : No

Text #1
ID : 6
Format : ASS
Codec ID : S_TEXT/ASS
Codec ID/Info : Advanced Sub Station Alpha
Compression mode : Lossless
Title : Sub
Language : Italian
Default : No
Forced : No

Text #2
ID : 7
Format : ASS
Codec ID : S_TEXT/ASS
Codec ID/Info : Advanced Sub Station Alpha
Compression mode : Lossless
Title : Sub
Language : English
Default : No
Forced : No

Menu
00:00:00.000 : en:Logos/United Nations
00:04:56.129 : en:Funeral for Two
00:07:37.874 : en:Snake Dance
00:12:31.167 : en:Live and Let Die/Credits
00:17:57.409 : en:Magnetic Closet Case
00:22:36.396 : en:Road Rage
00:26:31.381 : en:Recorded Speech
00:28:49.853 : en:"Oh Cult Voodoo"
00:30:33.581 : en:Tailing a "Cue Ball"
00:34:46.125 : en:"Filet of Soul"
00:38:19.296 : en:It's In the Cards
00:41:54.887 : en:Cia Saves the Spy
00:46:54.061 : en:"Man Who Cannot Die"
00:51:06.938 : en:Bugged and Snaked
00:54:51.496 : en:"Mrs. Bond?"
00:57:18.726 : en:Morning Fishing
01:03:02.278 : en:Future Teller
01:04:58.811 : enouble Agent
01:07:06.397 : en:"Where Is Bond Now?"
01:10:47.701 : en:Lookout Knockout
01:14:53.614 : en:Blasphemous Bond
01:19:29.222 : en:Out of Sight
01:26:17.714 : en:Following Scarecrows
01:31:55.510 : en:Copter/Cop Attack
01:35:48.826 : en:"Valuable Piece"
01:40:27.521 : en:Cab Capture
01:44:50.284 : en:"Let's Just Wing It"
01:47:40.745 : en:Soulful Funeral
01:49:41.032 : en:Live and Let Die
01:55:33.927 : en:Unmasked Man and Plan
01:56:30.817 : en:Solitaire/Death Card
02:00:05.990 : en:"Feeding Time"

Info: Per scaricare devi usare un client come uTorrent, o Azureus
AnnounceURL
http://tracker.tntvillage.scambioetico.org:2710/announce
Hash e9aadf5bcd42120f3542d2d27ef93176be9db023
Peers seeds: 12 , leech: 61
Size 7.47 GB
Completato 313x
Aggiunto 09.10.14 - 16:10:39
Uploader   ZMachine
Votazione (Voti: 0)


Condividi questo bittorrent:


html/blog:


bbcode/forum:


Tramite bookmarks:



Aggiungi Commento